Hokuto no Ken The Movie (1986) [REMASTERED REMUX 1080p MULTI PCM DTS 5.1]

Category:
Date:
2018-09-26 15:54 UTC
Submitter:
Anonymous
Seeders:
0
Information:
Unofficial US Unreleased
Leechers:
1
File size:
22.0 GiB
Completed:
56
Info hash:
dad9e2737835855cd32dbb1cd597106febdf8e8d
Source : BDMV US Format : 16/9 Complete name : Hokuto no Ken The Movie (1986) [MULTI REMASTERED BD REMUX 1080p DTS 5.1 16.9].mkv Format : Matroska Format version : Version 4 / Version 2 File size : 22.0 GiB Duration : 1 h 55 min Overall bit rate mode : Variable Overall bit rate : 27.1 Mb/s Movie name : Hokuto no Ken Film (1986) Encoded date : UTC 2018-09-11 03:16:12 / UTC 2016-06-29 05:17:13 Writing application : mkvmerge v22.0.0 ('At The End Of The World') 64-bit Writing library : libebml v1.3.5 + libmatroska v1.4.8 / Lavf54.63.104 Attachments : AGaramondPro-Bold_1.otf / BaselBook Bold_1.ttf / Bolide_Regular_1.ttf / CALIST.TTF / IMPRESS2.TTF / trebuc.ttf Video ID : 1 Format : AVC Format/Info : Advanced Video Codec Format profile : [email protected] Format settings : CABAC / 3 Ref Frames Format settings, CABAC : Yes Format settings, RefFrames : 3 frames Codec ID : V_MPEG4/ISO/AVC Duration : 1 h 55 min Bit rate mode : Variable Nominal bit rate : 23.0 Mb/s Maximum bit rate : 31.0 Mb/s Width : 1 920 pixels Height : 1 080 pixels Display aspect ratio : 16:9 Frame rate mode : Constant Frame rate : 23.976 (24000/1001) FPS Color space : YUV Chroma subsampling : 4:2:0 Bit depth : 8 bits Scan type : Progressive Bits/(Pixel*Frame) : 0.463 Writing library : x264 core 146 r2538 121396c Encoding settings : cabac=1 / ref=4 / deblock=1:-1:-1 / analyse=0x3:0x133 / me=umh / subme=10 / psy=1 / psy_rd=1.00:0.15 / mixed_ref=1 / me_range=24 / chroma_me=1 / trellis=2 / 8x8dct=1 / cqm=0 / deadzone=21,11 / fast_pskip=1 / chroma_qp_offset=-3 / threads=6 / lookahead_threads=1 / sliced_threads=0 / slices=4 / nr=0 / decimate=1 / interlaced=0 / bluray_compat=1 / constrained_intra=0 / bframes=3 / b_pyramid=1 / b_adapt=2 / b_bias=0 / direct=3 / weightb=1 / open_gop=1 / weightp=1 / keyint=24 / keyint_min=1 / scenecut=40 / intra_refresh=0 / rc_lookahead=24 / rc=2pass / mbtree=1 / bitrate=23000 / ratetol=1.0 / qcomp=0.60 / qpmin=0 / qpmax=69 / qpstep=4 / cplxblur=20.0 / qblur=0.5 / vbv_maxrate=31000 / vbv_bufsize=30000 / nal_hrd=vbr / filler=0 / ip_ratio=1.40 / aq=1:1.00 Default : Yes Forced : No Color range : Limited Color primaries : BT.709 Transfer characteristics : BT.709 Matrix coefficients : BT.709 Statistics Tags Issue : mkvmerge v22.0.0 ('At The End Of The World') 64-bit 2018-09-11 03:16:12 / mkvmerge v22.0.0 ('At The End Of The World') 64-bit 2018-09-11 03:16:12 / UTC 2016-06-29 05:17:13 FromStats_BitRate : 22782363 FromStats_Duration : 01:55:53.447000000 FromStats_FrameCount : 166716 FromStats_StreamSize : 19801994369 Audio #1 ID : 2 Format : DTS Format/Info : Digital Theater Systems Codec ID : A_DTS Duration : 1 h 55 min Bit rate mode : Constant Bit rate : 1 413 kb/s Channel(s) : 6 channels Channel positions : Front: L C R, Side: L R, LFE Sampling rate : 48.0 kHz Frame rate : 93.750 FPS (512 SPF) Bit depth : 16 bits Compression mode : Lossy Stream size : 1.14 GiB (5%) Title : JAP DTS 5.1 Language : Japanese Default : No Forced : No Statistics Tags Issue : mkvmerge v22.0.0 ('At The End Of The World') 64-bit 2018-09-11 03:16:12 / mkvmerge v22.0.0 ('At The End Of The World') 64-bit 2018-09-11 03:16:12 / UTC 2016-06-29 05:17:13 FromStats_BitRate : 1412999 FromStats_Duration : 01:55:53.473000000 FromStats_FrameCount : 651888 FromStats_StreamSize : 1228156992 Audio #2 ID : 5 Format : DTS Format/Info : Digital Theater Systems Codec ID : A_DTS Duration : 1 h 55 min Bit rate mode : Constant Bit rate : 1 413 kb/s Channel(s) : 6 channels Channel positions : Front: L C R, Side: L R, LFE Sampling rate : 48.0 kHz Frame rate : 93.750 FPS (512 SPF) Bit depth : 16 bits Compression mode : Lossy Delay relative to video : 200 ms Stream size : 1.14 GiB (5%) Title : VFF DTS 5.1 Language : French Default : No Forced : No Statistics Tags Issue : mkvmerge v22.0.0 ('At The End Of The World') 64-bit 2018-09-11 03:16:12 / mkvmerge v22.0.0 ('At The End Of The World') 64-bit 2018-09-11 03:16:12 / UTC 2016-06-29 05:17:13 FromStats_BitRate : 1413000 FromStats_Duration : 01:53:56.415000000 FromStats_FrameCount : 640914 FromStats_StreamSize : 1207481976 Audio #3 ID : 6 Format : PCM Format settings : Little / Signed Codec ID : A_PCM/INT/LIT Duration : 1 h 55 min Bit rate mode : Constant Channel(s) : 2 channels Sampling rate : 48.0 kHz Bit depth : 16 bits Title : JAP PCM 2.0 Language : Japanese Default : Yes Forced : Yes Statistics Tags Issue : mkvmerge v22.0.0 ('At The End Of The World') 64-bit 2018-09-11 03:16:12 / mkvmerge v22.0.0 ('At The End Of The World') 64-bit 2018-09-11 03:16:12 / UTC 2016-06-29 05:17:13 FromStats_BitRate : 1536000 FromStats_Duration : 01:55:53.450000000 FromStats_FrameCount : 1390690 FromStats_StreamSize : 1335062400 Text #1 ID : 3 Format : UTF-8 Codec ID : S_TEXT/UTF8 Codec ID/Info : UTF-8 Plain Text Title : VOSTFR Language : French Default : Yes Forced : Yes Statistics Tags Issue : mkvmerge v22.0.0 ('At The End Of The World') 64-bit 2018-09-11 03:16:12 / mkvmerge v22.0.0 ('At The End Of The World') 64-bit 2018-09-11 03:16:12 / UTC 2016-06-29 05:17:13 FromStats_BitRate : 34 FromStats_Duration : 01:53:32.225000000 FromStats_FrameCount : 844 FromStats_StreamSize : 29624

File list

  • Hokuto no Ken The Movie (1986) [MULTI REMASTERED BD REMUX 1080p DTS 5.1 16.9].mkv (22.0 GiB)