[NSBC] Kono Koi wa Tsumi nanoka!? E01 [WEBDL] [720p]

Category:
Date:
2018-12-07 11:51 UTC
Submitter:
Seeders:
17
Information:
TlNCQy50bw==
Leechers:
1
File size:
356.8 MiB
Completed:
360
Info hash:
0db6fea9a1dd831b318485d7a271c938d92b16bd
![poster](http://img.topddl.net/images/85a71ca94bdaa6916937cafbedf17f18.jpg "") ``` General Format : MPEG-4 Format profile : Base Media Codec ID : isom (isom/iso2/avc1/mp41) File size : 357 MiB Duration : 23 min 41 s Overall bit rate : 2 105 kb/s Writing application : Lavf57.83.100 Video ID : 1 Format : AVC Format/Info : Advanced Video Codec Format profile : [email protected] Format settings, CABAC : Yes Format settings, RefFrames : 8 frames Codec ID : avc1 Codec ID/Info : Advanced Video Coding Duration : 23 min 41 s Bit rate : 1 968 kb/s Width : 1 280 pixels Height : 720 pixels Display aspect ratio : 16:9 Frame rate mode : Constant Frame rate : 29.970 (30000/1001) FPS Color space : YUV Chroma subsampling : 4:2:0 Bit depth : 8 bits Scan type : Progressive Bits/(Pixel*Frame) : 0.071 Stream size : 333 MiB (93%) Writing library : x264 core 148 r2795 aaa9aa8 Encoding settings : cabac=1 / ref=8 / deblock=1:0:0 / analyse=0x3:0x133 / me=umh / subme=9 / psy=1 / psy_rd=1.00:0.00 / mixed_ref=1 / me_range=16 / chroma_me=1 / trellis=2 / 8x8dct=1 / cqm=0 / deadzone=21,11 / fast_pskip=1 / chroma_qp_offset=-2 / threads=12 / lookahead_threads=1 / sliced_threads=0 / nr=0 / decimate=1 / interlaced=0 / bluray_compat=0 / constrained_intra=0 / bframes=3 / b_pyramid=2 / b_adapt=2 / b_bias=0 / direct=3 / weightb=1 / open_gop=0 / weightp=2 / keyint=250 / keyint_min=25 / scenecut=40 / intra_refresh=0 / rc_lookahead=60 / rc=crf / mbtree=1 / crf=20.0 / qcomp=0.60 / qpmin=0 / qpmax=69 / qpstep=4 / ip_ratio=1.40 / aq=1:1.00 Audio ID : 2 Format : AAC Format/Info : Advanced Audio Codec Format profile : LC Codec ID : 40 Duration : 23 min 41 s Bit rate mode : Constant Bit rate : 129 kb/s Channel(s) : 2 channels Channel positions : Front: L R Sampling rate : 44.1 kHz Compression mode : Lossy Stream size : 21.9 MiB (6%) Default : Yes Alternate group : 1 ```

File list

  • [NSBC] Kono Koi wa Tsumi nanoka E01 [WEBDL] [720p].mp4 (356.8 MiB)

Comments - 1