[NSBC] Radiation House E10 [WEBDL] [1080p]

Category:
Date:
2019-06-13 09:50 UTC
Submitter:
Seeders:
3
Information:
TlNCQy50bw==
Leechers:
1
File size:
997.1 MiB
Completed:
940
Info hash:
af86ad971e857236748a45c0f494af824956da8e
> ### `Subtitle English & Indonesian` > ### Subs on [Subscene](https://subscene.com/subtitles/radiation-house-rajieshon-hausu) ![POSTER](http://img.topddl.net/images/359aa64d3424621160253a506e922922.jpg "") ``` General Unique ID : 91472067705111229247978179429661116699 (0x44D0E1221DDDED538BA3968B5527891B) Complete name : [NSBC] Radiation House E10 [WEBDL] [1080p].mkv Format : Matroska Format version : Version 4 File size : 997 MiB Duration : 45 min 59 s Overall bit rate : 3 031 kb/s Movie name : [NSBC] Radiation House E10 [WEBDL] [1080p] Encoded by : NoNe | NSBC Encoded date : UTC 2019-06-13 09:41:16 Writing application : mkvmerge v34.0.0 ('Sight and Seen') 64-bit Writing library : libebml v1.3.7 + libmatroska v1.5.0 Copyright : NSBC Comment : NoNe | NSBC DATE_RECORDED : 2019 Video ID : 1 Format : AVC Format/Info : Advanced Video Codec Format profile : [email protected] Format settings : CABAC / 4 Ref Frames Format settings, CABAC : Yes Format settings, RefFrames : 4 frames Codec ID : V_MPEG4/ISO/AVC Duration : 45 min 59 s Bit rate : 2 964 kb/s Width : 1 920 pixels Height : 1 080 pixels Display aspect ratio : 16:9 Frame rate mode : Constant Frame rate : 24.000 FPS Color space : YUV Chroma subsampling : 4:2:0 Bit depth : 8 bits Scan type : Progressive Bits/(Pixel*Frame) : 0.060 Stream size : 975 MiB (98%) Title : [NSBC] Writing library : x264 core 152 r2851 ba24899 Encoding settings : cabac=1 / ref=4 / deblock=1:0:0 / analyse=0x3:0x113 / me=hex / subme=8 / psy=1 / psy_rd=1.00:0.00 / mixed_ref=1 / me_range=16 / chroma_me=1 / trellis=2 / 8x8dct=1 / cqm=0 / deadzone=21,11 / fast_pskip=1 / chroma_qp_offset=-2 / threads=10 / lookahead_threads=1 / sliced_threads=0 / nr=0 / decimate=1 / interlaced=0 / bluray_compat=0 / constrained_intra=0 / bframes=0 / weightp=2 / keyint=72 / keyint_min=7 / scenecut=40 / intra_refresh=0 / rc_lookahead=50 / rc=cbr / mbtree=1 / bitrate=2964 / ratetol=1.0 / qcomp=0.90 / qpmin=3 / qpmax=51 / qpstep=8 / vbv_maxrate=2964 / vbv_bufsize=11856 / nal_hrd=none / filler=0 / ip_ratio=1.40 / aq=1:1.00 Default : Yes Forced : No Audio ID : 2 Format : AAC LC Format/Info : Advanced Audio Codec Low Complexity Codec ID : A_AAC-2 Duration : 45 min 59 s Bit rate : 64.6 kb/s Channel(s) : 2 channels Channel layout : L R Sampling rate : 44.1 kHz Frame rate : 43.066 FPS (1024 SPF) Compression mode : Lossy Delay relative to video : 46 ms Stream size : 21.3 MiB (2%) Title : [NSBC] Language : Japanese Default : Yes Forced : No Text #1 ID : 3 Format : UTF-8 Codec ID : S_TEXT/UTF8 Codec ID/Info : UTF-8 Plain Text Duration : 45 min 49 s Bit rate : 56 b/s Count of elements : 656 Stream size : 18.9 KiB (0%) Title : [NSBC] [EN] Language : English Default : Yes Forced : No Text #2 ID : 4 Format : UTF-8 Codec ID : S_TEXT/UTF8 Codec ID/Info : UTF-8 Plain Text Duration : 45 min 49 s Bit rate : 56 b/s Count of elements : 656 Stream size : 19.0 KiB (0%) Title : [NSBC] [ID] Language : Indonesian Default : No Forced : No ```

File list

  • [NSBC] Radiation House E10 [WEBDL] [1080p].mkv (997.1 MiB)

NOSoba (uploader)

User
just an info, i'm facing a big internet issue.. maybe not upload on nyaa until next week or so, but all updates are on nsbc client which is take by another staff... all thing on nyaa are by me "NoNe" so yeah.. also dont worry i will not miss any of latest episodes :)
Hello, NOSoba~ Thanks for the uploads! I'm having trouble downloading this https://nyaa.si/view/1035719 probably because there's no seeders at all, do you happen to have a direct download link for it or could reupload it?
hooh~~~ thanks, NOSoba, I thought I am going to miss the last 2 episodes of "In Hand", and "Ore Suka", will wait, and thanks for uploading, thanks so much!

NOSoba (uploader)

User
> I’m having trouble downloading this https://nyaa.si/view/1035719 probably because there’s no seeders at all, do you happen to have a direct download link for it or could reupload it? that torrent are upload by another staff.. idk who upload them.. so sorry i cant give a direct or reseed it..