[NSBC] Pornographer E04 [WEBDL] [720p]

Category:
Date:
2019-08-13 23:28 UTC
Submitter:
Seeders:
5
Information:
TlNCQy50bw==
Leechers:
4
File size:
365.4 MiB
Completed:
257
Info hash:
b9da9eef236b5dc74c4fdc4556ac4bfb520e5470
![Posters](http://img.topddl.net/images/85434b561ad08bd0a5541afdc7d40db0.jpg "") ![Thumbnails](http://img.topddl.net/images/eb4ec3d457d6167ca0797508c1c048e1.png "") ``` General Unique ID : 328358969982566507909217943398123545815 (0xF707A324C424974E1D40D453153FA4D7) Complete name : [NSBC] Pornographer E04 [WEBDL] [720p].mkv Format : Matroska Format version : Version 4 File size : 365 MiB Duration : 23 min 59 s Overall bit rate mode : Variable Overall bit rate : 2 130 kb/s Movie name : [NSBC] Pornographer E04 [WEBDL] [720p] Encoded by : NoNe | NSBC Encoded date : UTC 2019-08-13 23:20:16 Writing application : mkvmerge v36.0.0 ('Is That Jazz?') 64-bit Writing library : libebml v1.3.9 + libmatroska v1.5.2 Copyright : NSBC Comment : NoNe | NSBC DATE_RECORDED : 2019 Video ID : 1 Format : AVC Format/Info : Advanced Video Codec Format profile : [email protected] Format settings : CABAC / 4 Ref Frames Format settings, CABAC : Yes Format settings, Reference frames : 4 frames Codec ID : V_MPEG4/ISO/AVC Duration : 23 min 59 s Bit rate mode : Variable Bit rate : 2 000 kb/s Maximum bit rate : 6 000 kb/s Width : 1 280 pixels Height : 720 pixels Display aspect ratio : 16:9 Frame rate mode : Constant Frame rate : 29.970 (29970/1000) FPS Original frame rate : 29.970 (30000/1001) FPS Color space : YUV Chroma subsampling : 4:2:0 Bit depth : 8 bits Scan type : Progressive Bits/(Pixel*Frame) : 0.072 Stream size : 343 MiB (94%) Title : [NSBC] Default : Yes Forced : No Color range : Limited Color primaries : BT.709 Transfer characteristics : BT.709 Matrix coefficients : BT.709 Audio ID : 2 Format : AAC LC Format/Info : Advanced Audio Codec Low Complexity Codec ID : A_AAC-2 Duration : 23 min 59 s Bit rate : 128 kb/s Channel(s) : 2 channels Channel layout : L R Sampling rate : 48.0 kHz Frame rate : 46.875 FPS (1024 SPF) Compression mode : Lossy Delay relative to video : -67 ms Stream size : 22.0 MiB (6%) Title : [NSBC] Language : Japanese Default : Yes Forced : No ```

File list

  • [NSBC] Pornographer E04 [WEBDL] [720p].mkv (365.4 MiB)