[NSBC] Sadou E08 [WEBDL] [720p]

Category:
Date:
2019-09-09 22:52 UTC
Submitter:
Seeders:
2
Information:
TlNCQy50bw==
Leechers:
5
File size:
544.2 MiB
Completed:
322
Info hash:
b6bd0af1a1fefc01bb907f6e9d77ed1e61ceb3ab
![POSTER](http://img.topddl.net/images/f16f3ca93b8296a2be0a4c2d77b2f224.jpg "") ![Thumbnails](http://img.topddl.net/images/6de51ea0cc440fec252a8bf36f19ab39.png "") ``` General Unique ID : 67502827373879903792288312397478448298 (0x32C892581D3B4367D725B28DCECB4CAA) Complete name : [NSBC] Sadou E08 [WEBDL] [720p].mkv Format : Matroska Format version : Version 4 File size : 544 MiB Duration : 24 min 19 s Overall bit rate : 3 129 kb/s Movie name : [NSBC] Sadou E08 [WEBDL] [720p] Encoded by : NoNe | NSBC Encoded date : UTC 2019-09-09 22:42:11 Writing application : mkvmerge v37.0.0 ('Leave It') 64-bit Writing library : libebml v1.3.9 + libmatroska v1.5.2 Copyright : NSBC Comment : NoNe | NSBC DATE_RECORDED : 2019 Video ID : 1 Format : AVC Format/Info : Advanced Video Codec Format profile : [email protected] Format settings : CABAC / 3 Ref Frames Format settings, CABAC : Yes Format settings, Reference frames : 3 frames Format settings, GOP : M=1, N=30 Codec ID : V_MPEG4/ISO/AVC Duration : 24 min 19 s Bit rate : 2 998 kb/s Width : 1 280 pixels Height : 720 pixels Display aspect ratio : 16:9 Frame rate mode : Constant Frame rate : 29.970 (30000/1001) FPS Color space : YUV Chroma subsampling : 4:2:0 Bit depth : 8 bits Scan type : Progressive Bits/(Pixel*Frame) : 0.109 Stream size : 521 MiB (96%) Title : [NSBC] Writing library : Zencoder Video Encoding System Default : Yes Forced : No Audio ID : 2 Format : AAC LC Format/Info : Advanced Audio Codec Low Complexity Codec ID : A_AAC-2 Duration : 24 min 19 s Bit rate : 128 kb/s Channel(s) : 2 channels Channel layout : L R Sampling rate : 48.0 kHz Frame rate : 46.875 FPS (1024 SPF) Compression mode : Lossy Stream size : 22.2 MiB (4%) Title : [NSBC] Language : Japanese Default : Yes Forced : No ```

File list

  • [NSBC] Sadou E08 [WEBDL] [720p].mkv (544.2 MiB)