[NSBC] TWO WEEKS E09 [WEBDL] [1080p]

Category:
Date:
2019-09-10 13:24 UTC
Submitter:
Seeders:
17
Information:
TlNCQy50bw==
Leechers:
3
File size:
619.1 MiB
Completed:
647
Info hash:
cbac78024fff1b895ae9225efe299a30ecb8b9b9
![Posters](http://img.topddl.net/images/fdee882c3e163e0916976d0e06e2dba0.jpg "") ![Thumbnails](http://img.topddl.net/images/e84e1d4e96cea6e41ca67ed4d653c6ba.png "") ``` General Unique ID : 272763273197963143361573192110536544797 (0xCD344BA9B223FD250732B76DDAFA521D) Complete name : [NSBC] TWO WEEKS E09 [WEBDL] [1080p].mkv Format : Matroska Format version : Version 4 File size : 619 MiB Duration : 45 min 36 s Overall bit rate : 1 898 kb/s Movie name : [NSBC] TWO WEEKS E09 [WEBDL] [1080p] Encoded by : NoNe | NSBC Encoded date : UTC 2019-09-10 13:20:00 Writing application : mkvmerge v37.0.0 ('Leave It') 64-bit Writing library : libebml v1.3.9 + libmatroska v1.5.2 Copyright : NSBC Comment : NoNe | NSBC DATE_RECORDED : 2019 Video ID : 1 Format : AVC Format/Info : Advanced Video Codec Format profile : [email protected] Format settings : CABAC / 4 Ref Frames Format settings, CABAC : Yes Format settings, Reference frames : 4 frames Codec ID : V_MPEG4/ISO/AVC Duration : 45 min 35 s Bit rate : 1 768 kb/s Width : 1 920 pixels Height : 1 080 pixels Display aspect ratio : 16:9 Frame rate mode : Constant Frame rate : 29.970 (30000/1001) FPS Color space : YUV Chroma subsampling : 4:2:0 Bit depth : 8 bits Scan type : Progressive Bits/(Pixel*Frame) : 0.028 Stream size : 577 MiB (93%) Title : [NSBC] Writing library : Zencoder Video Encoding System Default : Yes Forced : No Color range : Limited Color primaries : BT.709 Transfer characteristics : BT.709 Matrix coefficients : BT.709 Audio ID : 2 Format : AAC LC Format/Info : Advanced Audio Codec Low Complexity Codec ID : A_AAC-2 Duration : 45 min 36 s Bit rate : 128 kb/s Channel(s) : 2 channels Channel layout : L R Sampling rate : 48.0 kHz Frame rate : 46.875 FPS (1024 SPF) Compression mode : Lossy Delay relative to video : -67 ms Stream size : 41.7 MiB (7%) Title : [NSBC] Language : Japanese Default : Yes Forced : No ```

File list

  • [NSBC] TWO WEEKS E09 [WEBDL] [1080p].mkv (619.1 MiB)