[NSBC] Heaven? E10 END [WEBDL] [1080p]

Category:
Date:
2019-09-10 14:24 UTC
Submitter:
Seeders:
22
Information:
TlNCQy50bw==
Leechers:
3
File size:
1.0 GiB
Completed:
823
Info hash:
71757183c7571cf22b91dc872d04790f630efa01
![Posters](http://img.topddl.net/images/47a1b6d2fcc06d3ca9d26fe2963fc8ad.jpg "") ![Thumbnails](http://img.topddl.net/images/43c470a6ee56ee79e30804c2521f91c6.png "") ``` General Unique ID : 331685020689936346245762012962145149643 (0xF988361AB725347502C7309E99DBA2CB) Complete name : [NSBC] Heaven? E10 END [WEBDL] [1080p].mkv Format : Matroska Format version : Version 4 File size : 1.03 GiB Duration : 48 min 6 s Overall bit rate : 3 066 kb/s Movie name : [NSBC] Heaven? E10 END [WEBDL] [1080p] Encoded by : NoNe | NSBC Encoded date : UTC 2019-09-10 14:20:34 Writing application : mkvmerge v37.0.0 ('Leave It') 64-bit Writing library : libebml v1.3.9 + libmatroska v1.5.2 Copyright : NSBC Comment : NoNe | NSBC DATE_RECORDED : 2019 Video ID : 1 Format : AVC Format/Info : Advanced Video Codec Format profile : [email protected] Format settings : CABAC / 4 Ref Frames Format settings, CABAC : Yes Format settings, Reference frames : 4 frames Codec ID : V_MPEG4/ISO/AVC Duration : 48 min 5 s Bit rate : 3 000 kb/s Width : 1 920 pixels Height : 1 080 pixels Display aspect ratio : 16:9 Frame rate mode : Constant Frame rate : 29.970 (30000/1001) FPS Color space : YUV Chroma subsampling : 4:2:0 Bit depth : 8 bits Scan type : Progressive Bits/(Pixel*Frame) : 0.048 Stream size : 1.01 GiB (98%) Title : [NSBC] Writing library : Zencoder Video Encoding System Default : Yes Forced : No Color range : Limited Color primaries : BT.709 Transfer characteristics : BT.709 Matrix coefficients : BT.709 Audio ID : 2 Format : AAC LC Format/Info : Advanced Audio Codec Low Complexity Codec ID : A_AAC-2 Duration : 48 min 6 s Bit rate : 64.0 kb/s Channel(s) : 2 channels Channel layout : L R Sampling rate : 48.0 kHz Frame rate : 46.875 FPS (1024 SPF) Compression mode : Lossy Delay relative to video : -67 ms Stream size : 22.0 MiB (2%) Title : [NSBC] Language : Japanese Default : Yes Forced : No ```

File list

  • [NSBC] Heaven? E10 END [WEBDL] [1080p].mkv (1.0 GiB)