[NSBC] Gisou Furin E10 END [WEBDL] [1080p]

Category:
Date:
2019-09-11 22:56 UTC
Submitter:
Seeders:
8
Information:
TlNCQy50bw==
Leechers:
6
File size:
968.6 MiB
Completed:
574
Info hash:
e74d1e2db243445738b6669090f6cc9aa64280d1
![Poster](http://img.topddl.net/images/ceafd99903045afdcbd8fb92b240aaff.jpg "") ![Thumbnails](http://img.topddl.net/images/5b5c56277f9be8a1d460ebcb45fd94e3.png "") ``` General Unique ID : 223908885531389853975678459877528022671 (0xA87348620980D0A1EAE28ED56865AE8F) Complete name : [NSBC] Gisou Furin E10 END [WEBDL] [1080p].mkv Format : Matroska Format version : Version 4 File size : 969 MiB Duration : 50 min 44 s Overall bit rate : 2 669 kb/s Movie name : [NSBC] Gisou Furin E10 END [WEBDL] [1080p] Encoded by : NoNe | NSBC Encoded date : UTC 2019-09-11 22:34:55 Writing application : mkvmerge v37.0.0 ('Leave It') 64-bit Writing library : libebml v1.3.9 + libmatroska v1.5.2 Copyright : NSBC Comment : NoNe | NSBC DATE_RECORDED : 2019 Video ID : 1 Format : AVC Format/Info : Advanced Video Codec Format profile : [email protected] Format settings : CABAC / 4 Ref Frames Format settings, CABAC : Yes Format settings, Reference frames : 4 frames Codec ID : V_MPEG4/ISO/AVC Duration : 50 min 44 s Bit rate : 2 603 kb/s Width : 1 920 pixels Height : 1 080 pixels Display aspect ratio : 16:9 Frame rate mode : Constant Frame rate : 29.970 (30000/1001) FPS Color space : YUV Chroma subsampling : 4:2:0 Bit depth : 8 bits Scan type : Progressive Bits/(Pixel*Frame) : 0.042 Stream size : 944 MiB (98%) Title : [NSBC] Writing library : Zencoder Video Encoding System Default : Yes Forced : No Audio ID : 2 Format : AAC LC Format/Info : Advanced Audio Codec Low Complexity Codec ID : A_AAC-2 Duration : 50 min 44 s Bit rate : 64.1 kb/s Channel(s) : 2 channels Channel layout : L R Sampling rate : 48.0 kHz Frame rate : 46.875 FPS (1024 SPF) Compression mode : Lossy Delay relative to video : -67 ms Stream size : 23.2 MiB (2%) Title : [NSBC] Language : Japanese Default : Yes Forced : No ```

File list

  • [NSBC] Gisou Furin E10 END [WEBDL] [1080p].mkv (968.6 MiB)