[NSBC] Yakiniku Pro-Wrestling E11 [WEBDL] [1080p]

Category:
Date:
2019-09-11 22:56 UTC
Submitter:
Seeders:
5
Information:
TlNCQy50bw==
Leechers:
3
File size:
690.2 MiB
Completed:
295
Info hash:
cd957d3ccba7f2b3542fe301f0c2d36ec2703525
> Ripped from AbemaTV ![Poster](http://img.topddl.net/images/6909f0fedcdebf17a8cb962d8f19b36f.png "") ![Thumbnails](http://img.topddl.net/images/4ced77d0c1eb6932c571cc3a48160f26.png "") ``` General Unique ID : 327976657075102822358931055080543605354 (0xF6BE01A9774DD9C34A145082F7B7D26A) Complete name : [NSBC] Yakiniku Pro-Wrestling E11 [WEBDL] [1080p].mkv Format : Matroska Format version : Version 4 File size : 690 MiB Duration : 23 min 0 s Overall bit rate : 4 196 kb/s Movie name : [NSBC] Yakiniku Pro-Wrestling E11 [WEBDL] [1080p] Encoded by : NoNe | NSBC Encoded date : UTC 2019-09-11 22:18:46 Writing application : mkvmerge v37.0.0 ('Leave It') 64-bit Writing library : libebml v1.3.9 + libmatroska v1.5.2 Copyright : NSBC Comment : NoNe | NSBC DATE_RECORDED : 2019 Video ID : 1 Format : AVC Format/Info : Advanced Video Codec Format profile : [email protected] Format settings : CABAC / 4 Ref Frames Format settings, CABAC : Yes Format settings, Reference frames : 4 frames Codec ID : V_MPEG4/ISO/AVC Duration : 23 min 0 s Bit rate : 4 000 kb/s Width : 1 920 pixels Height : 1 080 pixels Display aspect ratio : 16:9 Frame rate mode : Constant Frame rate : 29.970 (30000/1001) FPS Color space : YUV Chroma subsampling : 4:2:0 Bit depth : 8 bits Scan type : Progressive Bits/(Pixel*Frame) : 0.064 Stream size : 658 MiB (95%) Title : [NSBC] Writing library : x264 core 148 r265 3b70645 Encoding settings : cabac=1 / ref=2 / deblock=1:0:0 / analyse=0x1:0x111 / me=hex / subme=7 / psy=1 / psy_rd=1.00:0.00 / mixed_ref=1 / me_range=16 / chroma_me=1 / trellis=1 / 8x8dct=0 / cqm=0 / deadzone=21,11 / fast_pskip=1 / chroma_qp_offset=-2 / threads=9 / lookahead_threads=1 / sliced_threads=0 / nr=0 / decimate=1 / interlaced=0 / bluray_compat=0 / constrained_intra=0 / bframes=3 / b_pyramid=2 / b_adapt=1 / b_bias=0 / direct=1 / weightb=1 / open_gop=0 / weightp=2 / keyint=1000 / keyint_min=501 / scenecut=0 / intra_refresh=0 / rc_lookahead=40 / rc=2pass / mbtree=1 / bitrate=4000 / ratetol=1.0 / qcomp=0.60 / qpmin=0 / qpmax=69 / qpstep=4 / cplxblur=20.0 / qblur=0.5 / ip_ratio=1.40 / aq=1:1.00 Default : Yes Forced : No Audio ID : 2 Format : AAC LC Format/Info : Advanced Audio Codec Low Complexity Codec ID : A_AAC-2 Duration : 23 min 0 s Bit rate : 192 kb/s Channel(s) : 2 channels Channel layout : L R Sampling rate : 44.1 kHz Frame rate : 43.066 FPS (1024 SPF) Compression mode : Lossy Delay relative to video : -23 ms Stream size : 31.6 MiB (5%) Title : [NSBC] Language : Japanese Default : Yes Forced : No ```

File list

  • [NSBC] Yakiniku Pro-Wrestling E11 [WEBDL] [1080p].mkv (690.2 MiB)